#TITLE:Awaken By young_editer@hotmail.com;
#ARTIST:Dethklok;
#FILE:03 Awaken.mp3;
#BPM:190.010;
#GAP:-683;
#SAMPLESTART:18.140;
#SAMPLELENGTH:12.000;
#CDTITLE:Nepex-Chart.bmp;
#FREEZE:400.000=158.000,402.000=158.000,404.000=158.000,406.000=158.000,456.000=158.000,458.000=158.000,460.000=158.000,462.000=158.000,1970.000=316.000,1972.000=474.000,1974.000=158.000,1976.000=158.000,1978.000=158.000,1980.000=158.000,2030.000=160.000,2032.000=160.000,2034.000=160.000,2036.000=160.000,2086.000=158.000,2088.000=158.000,2090.000=158.000,2092.000=158.000,2142.000=158.000,2144.000=158.000,2146.000=158.000,2148.000=158.000,2198.000=158.000,2200.000=158.000,2202.000=158.000,2204.000=158.000;
#CHANGEBPM:1408.000=190.020;
#SINGLE:ANOTHER:11:
00000000
28662844
62882844
82668244
62884288
62668286
00442824
00668286
00442824
00846628
44648828
22626682
88628842
44668286
00442824
00668286
00682428
(6482842828628682)
(8482848684826284)
(8284262426284868)
(4862868286828684)
(8262426284848486)
(8682828482682428)
(6428682468242864)
(2862868242864286)
(A09010A0B!B000B01!11)
(3!300030A!AAB!B<61>868628)
(6828428042848628)
4!4004179A
(B!B000B09!99A!A000A03!33)
(1!1001604828428286)
(2868428!8000000080)
[26!600000602!2000000208!800080]
[4!400000000000000000040000]
[28!800000804!4000000406!600006]
2!20000002
(8284828462686284)
(8284868286826828)
(6286848284282482)
(428482867!8008B!4004)
3!64882844
82882844
92668244
62884288
62664822
48662844
62882844
82668244
62442824
00882428
00228682
00228682
00882428
00442824
00668286
00882428
00228682
00442824
00668286
00228682
00442824
00668286
00442824
00882428
`600000004!40000000000000000000000000000000000000000000000040000000000000008!8000000000000000000000000000000000000000000000000000000000008000000000002!200000000000000000000000000000000000200000000000'
(6!6000064!4000048!8008)
`2!200000000000000000000000000000000000000000000000000000000000200000000000400000006!6000000000000000000000000000000000000000000000000000000000000000000000000000000000000000000000000000000000000000'
[000000000000000000000060]
(8!8000082!2000026!6006)
`40000000000000002!200000000000000000000000000000000000000020000000000000008!8000000000000000000000000000000000000000000000000000000000008000000000002!200000000000000000000000000000000000200000000000'
`6!60000000000000000000000000000000000000000000000000000000000060000000000040000000000000008!80000000000000000000000000000000000000000000000000000000000000000000000000000000000000000000000000000000'
00000000
`800000000000000000000000000000000000000000000000400000006!6000000000000000000000000000000000000000000000000000000000000000600000000000000000000000200000000000800000000000400000000000800000000000'
2!20200000
`600000000000000000000000000000002!2000000000000000000000002000000000000000800000000000000000000000400000000000600000000000200000000000600000000000400000000000800000000000200000000000800000000000'
(4826284628428620)
{0000000000000000206000008000000060000000400000008000000020008000}
{2!20000000200000006000400060000000200000008!800000008000000040600000}
`2000000000000000000000008000000000004000000000008000000000004000000000008!8000000000008000000000000000000000000000000000006000000040000000000000008000000000002000000000008!800000000000800000000000'
(0042868!880068242!22)
(4!4000000000046020)
(8040608020406028)
28462846
(802040602!20000002)
(6!6064848020602!2200)
`4!4000000000000000000000004000000000006000000000002000000000006000000000002000000000000000000000008000000000000000400000000000000000000000000000008!800000000000800000000000000000000000000000000000'
(4!4040828482682428)
(2086286848268248)
33446244
28226288
42662866
48228466
28442866
28448244
26228466
28442488
46228682
00228682
00882428
00442824
26446244
28226288
42662866
48228466
28442824
00228682
00668286
00882428
(6262848284828426)
(2686268628482848)
(2848262628284828)
(4262426286286848)
(2428482428482428)
(6826826286284284)
(8486242868262868)
(2222222222222848)
(2842828628682842)
(6286426286286848)
(2842624286286828)
(4282428248242824)
(2848682682864282)
(4682868486242848)
(2428482428486826)
73B739AB!B
(000BA!AA3!3000037!77B!B<61>)
(8686286828428042)
(8486284!4000004010)
(7090A0B!B000B09!99A!A0)
(00A03!334020402080)
68648482
62!22B37BA!A
{000000000000A000B!B000B0007!7000000000000000000070009!9000900020400000}
62842824
28642867
(B0A090B!B0000B7!771!10)
`0000000000000000000000000000000000001000000000009!900000000000900000000000800000002000000000000000800000002000000000000000800000002000000000000000800000002000000000000000800000002000000000000000'
[82082082082082082082082!20]
[000002000B00100300700B!B00]
(000B<8!81!1><81><8!83!3>0000<83><8!8B!B><8B><6!61!1>0)
(0<61>82846262868482)
`400000000000200000000000800000000000400000000000800000000000200000000000600000000000200000000000800000000000600000000000800000000000200000000000800000000000400000000000200000008!8000000000000000'
[0008002!2000002004!4000406!600]
[00000000000000000060028!80]
[0008004!4000004006!6000602!200]
[00000000000000020000084!40]
[0000406!6000000602!2002008!800]
[00000000000000000080026!60]
[0000602!2000002008!8008002!200]
(0000000000200028)
(6828648286828486)
(8262848262868482)
(6824262862868482)
(6824282482428486)
(8268286284824284)
(8242824262428486)
(8286828682848264)
(6482828282848480)
26682446
28842886
2664822<8!8B!B>
0<8B>0<1!19!9>0000
00000000
00000000
00000000
00000000
00000000
0000000<19>
;
#SINGLE:MANIAC:12:
00000000
17662844
93882844
9A668244
31884288
B1668286
A3442824
A7668286
79442824
A3846628
11648828
11626682
99428842
77668286
A3442824
97668286
17682428
(6482842828628682)
(8482848684826284)
(8284262426284868)
(4862868286828684)
(8262426284848486)
(8682828482682428)
(6428682468242864)
(2862868242864286)
(A09010A0B!B020<8B>01!11)
(3!3080<61>0A!AAB!B<61>868628)
(6828428042848628)
(4!46286818107090A0)
(B!B080<61>09!99A!A060<81>03!33)
(1!1081604828428286)
(2868428!8626462676)
[16!608007602!200B008209!800480]
[1!400600300800900200A40600]
[18!80400380B!400A002409!600406]
A!28B67493
(7284828462686284)
(8284868286826828)
(6286848284282482)
(428482867!8008B!4004)
3!61882844
A1882822
<8B>A668244
93884288
B1664822
BA662844
91882844
91668244
3A442824
33882428
BB228682
99228682
BB882428
33442824
AA668286
11882428
BB228682
99442824
AA668286
77228682
99442824
AA668286
AA442824
33882428
`600000004!40000000000000000000000000000000000000003000000040000000000000008!8000000000000000000000003000000000000000000000000000000000008000000000001!200000000000000000000000700000000000200000000000'
(6!6070A64!4030049!80B8)
`2!200000000000000000000000000000000000200000000000800000000000000000000000800000006!6000000000000000200000000000000000000000400000000000000000000000200000000000000000000000800000000000000000000000'
[000000400400200800200460]
(8!8000B82!2070726!60A6)
`40000000000000002!20000000B00000000000000000000000B000000020000000000000008!800000000000000000000000B00000000000000000000000<81>000000000000000000000002!200000000000000000000000000000000000200000000000'
`B!60000000000000000000000000000000000000000000000010000000000060000000000010000000000000008!80000000100000000000000000000000000000000000000000000000000000000000000000000000300000000000000000000000'
03013130
`800000000000000000000000000000000000000000000000100000006!6000000000000000000000000000000000000000000000000000000000000000600000000000000000000000100000000000800000000000400000000000800000000000'
2!20<61>00070
`600000000000000000000000000000002!2000000000000000B00000002000000000000000800000000000000000000000400000000000600000000000200000000000600000000000400000000000800000000000200000000000800000000000'
(4826284628428620)
{0000000000000000106000008000000060000000400000009000000020008000}
{2!20000000200000009000400060000000200000008!80000000<81>000000040600000}
`2000000000000000000000008000000000004000000000008000000000004000000000008!8000000000008000000000000000000000000000000000006000000040000000000000008000000000002000000000008!800000000000800000000000'
(0042868!880068242!22)
(4!4000300000049020)
(8040308020409028)
28162816
(802070602!2000B002)
`6!600000000000000000000000600000000000000000000000100000008000000040000000800000000000000000000000200000000000000000000000600000000000000000000000A!200000000000200000000000000000000000000000000000'
`4!4000000000000000000000004000000000000000000000009000000020000000600000002000000000000000000000008000000000000000400000000000000000000000000000009!800000000000800000000000000000000000000000000000'
(4!4040928482682428)
(2086286848268248)
3A446244
39226288
BA662866
17228466
1A442866
A9448244
AB228466
A9442488
11228682
BB228682
77882428
77442834
26746274
28126278
42B62836
48328496
28442824
99228682
BB668286
77882428
(6262848284828426)
(2686268628482848)
(2848262628284828)
(4262426286286848)
(2428482428482428)
(6826826286284284)
(8486242868262868)
(2222222222222848)
(2842828628682842)
(6286426286286848)
(2842624286286828)
(4282428248242824)
(2848682682864282)
(4682868486242848)
(2428482428486826)
73B739AB!B
(208BA!AA3!3080437!77B!B<61>)
(8686286828428042)
(8486284!4628261810)
(7090A0B!B080<61>09!99A!A0)
(60<81>03!334828462682)
(6282624282428628)
(682!2838B03070B0A!A0)
{600000004000A000B!B000B0007!7000000060000000200070009!9000900020400000}
(6026864826862846)
(2682624826826270)
(B0A090B!B0802B7!771!10)
`8000000000000000000000006000000000001000000000009!900000000000900000000000800000002000000000000000800000002000000000000000800000002000000000000000800000002000000000000000800000002000000000000000'
[82082082082082082082082!20]
`800000000000400000000000800000000000600020000000800000000000200000000000B00000000000000000000000100000000000000000000000300000000000000000000000700000000000000000000000B!B00000000000000000000000'
(802B<8!81!1><81><8!83!3>0404<83><8!8B!B><8B><6!61!1>0)
(8<61>82846262868482)
`400000000000200000000000800000000000400000000000800000000000200000000000600000000000200000000000800000000000600000000000800000000000200000000000800000000000400000000000300000008!8000000000000000'
[000<8B>002!200700A00B!4008403!600]
[400700200100400A00B0018!80]
[000<83>004!400A007003!600460A!200]
[600700400900600<81>0020094!40]
[600A403!600700460A!2003007!800]
[200B00400300200B00A0016!60]
[2007602!2007003009!8009001!200]
(6070609040<61>08018)
(6828648286828486)
(8262848262868482)
(6824262862868482)
(6824282482428486)
(8268286284824284)
(8242824262428486)
(8286828682848264)
(6482828282848490)
16682449
1884288B
A664822<8!8B!B>
0<8B>0<1!19!9>0000
00000000
00000000
00000000
00000000
00000000
0000000<19>
;
#SINGLE:SMANIAC:14:
00000000
17662844
93882844
9A668244
31884288
B1668286
A3442824
A7668286
79442824
A3846628
11648828
11626682
99428842
77668286
A3442824
97668286
17682428
(3482942838627682)
(94829486A482B284)
(9284A624A628B868)
(1862768276827684)
(926272629484A486)
(A682728492683428)
(3428B82438243864)
(3!3<83>3!3<61>8682B!B2<8B>64286)
(A09010A0B!B020<8B>01!11)
(3!3080<61>0A!AAB!B<61>867628)
(B828B280B284A628)
(1!46283818107090A0)
(B!B080<61>09!99A!A060<81>03!33)
(1!1081904838429286)
(1868B28!8616461676)
[16!608007602!200B008209!800480]
[1!400600300800900200A40600]
[18!80400380B!400A002409!600406]
A!28B67493
(728492849268B284)
(9284A6827682B828)
(B286A48294283482)
(B28492867!8008B!4004)
3!61882844
A1882822
<8B>A668244
93884288
B1664822
BA662844
91882844
91668244
<83><81>B42834
<83><61>782438
<61><8B>A28672
<83><8B>128672
<8B><61>A82438
<61><83>B42834
<83><81>368276
<61><81>982438
<8B><61>328672
<8B><83>B42834
<81><83>B68276
(<8B>0<81>0A02280607020)
(<83>0<8B>0B04420803040)
(<61>0<83>0906680207060)
(<81>0<83>0704420803040)
(<8B>0<83>0A08820403080)
`600000004!40000000000000000000000000000000000000003000000040000000000000008!8000000000000000000000003000000000000000000000000000000000008000000000001!200000000000000000000000700000000000200000000000'
(6!6070A64!4030049!80B8)
`2!200000000000000000000000000000000000200000000000700000000000000000000000800000006!6000000000000000200000000000000000000000400000000000000000000000A00000000000000000000000800000000000000000000000'
`000000000000000000000000000000000000000000000000700000000000000000000000400000000000000000000000200000000000000000000000800000000000000000000000A00000000000000000000000400000006000200000000000'
(8!8000B82!207072B!60A6)
`40000000000000002!20000000B00000000000000000000000B000000020000000000000008!800000000000000000000000B00000000000000000000000<81>000000000000000000000003!200000000000000000000000000000000000200000000000'
`B!60000000000000000000000000000000000000000000000010000000000060000000000010000000000000008!80000000100000000000000000000000000000000000000000000000300000000000000000000000300000000000000000000000'
03313130
`700000000000000000000000400000000000000000000000100000006!6000000000000000000000000000000000000000400000000000000000000000B00000000000000000000000100000000000800000000000400000000000800000000000'
2!28<61>06670
`600000000000000000000000600000002!2000000000000000B00000002000000000000000800000000000000000000000400000000000600000000000200000000000600000000000100000000000800000000000200000000000800000000000'
(4826184628427620)
{4000000040000000106000008000000060000000400000009000000020008000}
{2!20000000200000009000400060000000200000008!80000000<81>000000040600000}
`2000000000000000000000008000000000004000000000009000000000004000000000008!8000000000008000000000000000000000000000000000006000000040000000000000009000000000002000000000008!800000000000800000000000'
(0042768!880068342!22)
(4!4080300020249020)
(8040308020409028)
28162816
(802070602!2000B002)
`6!600000000000000000000000600000000000000000000000100000008000000040000000800000000000000000000000200000000000000000000000600000000000000000000000A!200000000000200000000000000000000000000000000000'
`4!4000000000000000000000004000000000000000000000009000000020000000600000002000000000000000000000008000000000000000400000000000000000000000000000009!800000000000800000000000000000000000000000000000'
(4!4040928482683428)
(2086286848264248)
3A446244
39226288
BA662866
17228466
1A442866
A9448244
AB228466
A9442498
<61><81>128672
<8B><61>A28672
<8B><81>982438
<81><8B>742834
26746274
28126278
42B62836
48328496
28B428A4
<8B><83>328672
<8B><61>B68276
<8B><81>A82438
(B262948294829426)
(A686168618483848)
(384816261828B828)
(B262726276283848)
(3428B82438483428)
(382672627628B284)
(9486A428B8261868)
(2222222222222848)
(3842928618683842)
(9286726276283848)
(384292427628B828)
(B282B282B8243824)
(3848382672867282)
(76827684A6243848)
(3428B8243848B826)
73B739AB!B
(208BA!AA3!3080437!77B!B<61>)
(86A628B828B280B2)
(84A6281!4628361810)
(7090A0B!B080<61>09!99A!A0)
(60<81>03!334828162672)
(627262B282B28618)
(681!2838B03070B0A!A0)
{600000004000A000B!B000B0007!7000000060000000200070009!9000900020400000}
(6016861826762816)
(267262B826726270)
(B0A090B!B0802B7!771!10)
`8000000000000000000000006000000000001000000000009!900000000000900000000000900000002000000000000000800000002000000000000000900000002000000000000000800000002000000000000000900000002000000000000000'
[82092082092082092082092!20]
`800000000000400000000000700000000000600020000000800000000000200000000000B00000000000000000000000100000000000000000000000300000000000000000000000700000000000000000000000B!B00000000000000000000000'
(802B<8!81!1><81><8!83!3>0404<83><8!8B!B><8B><6!61!1>0)
(8<61>92849262768492)
`400000000000200000000000900000000000400000000000800000000000200000000000900000000000200000000000800000000000600000000000700000000000200000000000800000000000400000000000300000008!8000000000000000'
[000<8B>002!200700A00B!4008403!600]
[400700200100400A00B0018!80]
[000<83>004!400A007003!600460A!200]
[600700400900600<81>0020094!40]
[600A403!600700460A!2003007!800]
[200B00400300200B00A0016!60]
[2007602!2007003009!8009001!200]
(6070609040<61>08018)
(68186492867284A6)
(82B2849262768492)
(6834261862768492)
(6834283482B284A6)
(82B828B284924294)
(82B282B2627284A6)
(8276827682948264)
(6482828282848490)
16682449
1884288B
A664822<8!8B!B>
0<8B>0<1!19!9>0000
00000000
00000000
00000000
00000000
00000000
0000000<19>
;
#SINGLE:BASIC:8:
00000000
28662844
62882844
82668244
62884288
62668286
00442824
00668286
00442824
00846628
44648828
22626682
88628842
44668286
00442824
00668286
00682428
6!60000000
00000006
7!70000007
3!30000003
B!B0000000
0000000B
A!A000000A
B7!7079!9090
(B09010A0B!B000B01!11)
(3!300030A!AAB!B00B2082)
(8020802820802082)
(8!80000008107090A0)
(B!B000B09!99A!A000A03!33)
(1!1001602620602062)
6268!80008
[6!6000000602!2000000208!800080]
[4!400000000000000000040000]
[8!8000000804!4000000406!600006]
(2!2000000000000002)
(8!8000084!4000046!6006)
(2!2000000000000002)
(8!8000084!4000046!6006)
(2!200000207!8008B!4004)
3!64882844
82882844
92668244
62884288
62664822
48662844
62882844
82668244
62442824
00882428
00228682
00228682
00882428
00442824
00668286
00882428
00228682
00442824
00668286
00228682
00442824
00668286
00442824
00882428
`4!4000000000000000000000000000000000000000000000000000000040000000000000008!8000000000000000000000000000000000000000000000000000000000008000000000002!200000000000000000000000000000000000200000000000'
(6!6000064!4000048!8008)
(2!2000026!6000000000)
[000000000000000000000060]
(8!8000082!2000026!6006)
`2!2000000000000000000000000000000000000000000000000000000020000000000000008!8000000000000000000000000000000000000000000000000000000000008000000000002!200000000000000000000000000000000000200000000000'
(6!6000068!8000000000)
00000000
(80006!600000602848)
2!20200000
`600000000000000000000000000000002!2000000000000000000000002000000000000000800000000000000000000000400000000000600000000000200000000000600000000000400000000000800000000000200000000000800000000000'
(4826284628428620)
(0000208060408028)
(2!20206460208!808040)
(2084848!880082828!88)
(0042868!880068242!22)
(4!4000000000046020)
(8040608020406028)
28462846
(802040602!20000002)
(6!6064848020602!2200)
(4!4046262080408!8800)
(4!4040828482682428)
(2086286848268248)
66446244
28226288
42662866
48228466
28442866
28448244
26228466
28442488
46228682
00228682
00882428
00442824
26446244
28226288
42662866
48228466
28442824
00228682
00668286
00882428
3!30000000
00000003
7!70000007
9!90000090
B!B0000000
0000000B
1!10000001
(8282828282828000)
B!B0000000
0000000B
1!10000001
9!90000009
B!B0000000
0000000B
1!10000001
73B739AB!B
(000BA!AA3!3000037!77B!B0)
(0B80282080208280)
(2080282!20000002B0)
(7090A0B!B000B09!99A!A0)
(00A03!334020402080)
68648482
62!22B37BA!A
(000AB!BB7!7000079!9920)
62842824
28642867
(B0A090B!B0000B7!771!10)
(00019!998080808080)
88888888!8
(000008B0103070B!B0)
(000B1!113!300003B!BB3!30)
(0380484080408480)
(408048408040848!80)
[0008002!2000002004!4000406!600]
00000068!8
[0008004!4000004006!6000602!200]
(000000000000024!40)
(00046!6000062!20028!80)
(000000000000086!60)
(00062!2000028!80082!20)
(000000000000028!80)
(00084!4000046!60062!20)
(000000000000028!80)
(00084!4000046!60062!20)
(000000000000028!80)
(00086!6000068!80084!40)
(000000000000042!20)
(00026!6000068!80084!40)
(0000046!60062!200280)
26682446
28842886
2664822B!B
0B0<1!19!9>0000
00000000
00000000
00000000
00000000
00000000
0000000<19>
;
